Войти    Регистрация
Авторизация
» » Розовая пантера / The Pink Panther (2006) Blu-Ray Remux 1080p

Розовая пантера / The Pink Panther (2006) Blu-Ray Remux 1080p торрент



Данные временно не коректно отображаются, приносим свои извенения!
rozovaya-pantera-the-pink-panther-2006-blu-ray-remux-1080p-ot-darky-.torrent
Загрузил: Пользователь, Название:
Общий размер файлов в торренте:
Взяли: 13  | Размер: 96,49 Kb | Последняя активность: Сегодня
Раздают: | Качают: | Популярность:
   Файлы:


[img]http://your-torrent.org/uploads/posts/2013-11/thumbs/1384214239_scrin.jpg[/img


С руки застреленного легендарного футбольного тренера исчезает огромный бриллиант, известный как «Розовая пантера». Расследование инцидента поручается случайно оказавшемуся на месте преступления недотепе-инспектору Клузо.[spoiler=Интересно]- В роли инспектора Клузо с равным успехом могли появиться Кевин Спейси, Майк Майерс и Крис Такер.- Джеки Чану долгое время прочили роль помощника Клузо по имени Като.- Иван Рейтман должен был занять режиссерское кресло, но предпочел остаться продюсером.- Данная лента стала восьмой среди картин, в которых знаменитая музыкальная тема Генри Манчини под названием «Розовая пантера» используется в качестве музыкального сопровождения.- Эпизодическая роль была предложена известному футболисту Дэвиду Бэкхэму, однако ему пришлось отказаться в связи с жесткими контрактными обязательствами его текущего клуба «Реал Мадрид».- Имя футболиста Бизу является аллюзией на прозвище легендарного французского футболиста Зинедина Зидана — Зизу.- Певица Бионсе Ноулс лично спела две песни в фильме в роли Зании («A Woman Like Me» и «Check On It»).[/spoiler][spoiler=Награды]Золотая малина, 2007 год

Информация о фильме
Название: Розовая пантера
Оригинальное название: The Pink Panther
Год: 2006
Жанр: комедия, приключения, семейный, криминал, детектив
Режиссер: Шон Леви
В ролях: Стив Мартин, Кевин Клайн, Жан Рено, Эмили Мортимер, Генри Черны, Кристин Ченоуэт, Роджер Риис, Бейонс Ноулз, Филлип Гудвин, Анри Гарсен, Уильям Абади, Дэниэл Саули, Жан Делл, Анна Катарина

О фильме: С руки застреленного легендарного футбольного тренера исчезает огромный бриллиант, известный как «Розовая пантера». Расследование инцидента поручается случайно оказавшемуся на месте преступления недотепе-инспектору Клузо.
[spoiler=Интересно]
- В роли инспектора Клузо с равным успехом могли появиться Кевин Спейси, Майк Майерс и Крис Такер.
- Джеки Чану долгое время прочили роль помощника Клузо по имени Като.
- Иван Рейтман должен был занять режиссерское кресло, но предпочел остаться продюсером.
- Данная лента стала восьмой среди картин, в которых знаменитая музыкальная тема Генри Манчини под названием «Розовая пантера» используется в качестве музыкального сопровождения.
- Эпизодическая роль была предложена известному футболисту Дэвиду Бэкхэму, однако ему пришлось отказаться в связи с жесткими контрактными обязательствами его текущего клуба «Реал Мадрид».
- Имя футболиста Бизу является аллюзией на прозвище легендарного французского футболиста Зинедина Зидана — Зизу.
- Певица Бионсе Ноулс лично спела две песни в фильме в роли Зании («A Woman Like Me» и «Check On It»).[/spoiler]
[spoiler=Награды]
Золотая малина, 2007 год

Номинации (1):
Худший римейк

Премия канала «MTV», 2006 год

Номинации (1):
Самая сексуальная роль (Бейонсе Ноулз)[/spoiler]
[img]/uploads/no-scrin.gif[/img]
Страна: США, Чехия
Продолжительность: 01:32:45
Перевод: Профессиональный (полное дублирование) с DVD Видеосервиса
Профессиональный (двухголосый, закадровый) (Пётр Гланц)

Файл
Кодек: x264
Качество: Blu-Ray Remux
Видео: 1920x1080, 25979 kbps, 23.976 fps
Звук:
Аудио1: Русский AC3 5.1, 48 KHz, 448 kbps профессиональный (полное дублирование) с DVD Видеосервиса
Аудио2: Русский DTS 5.1, 48 KHz, 1536 kbps профессиональный (двухголосый, закадровый) (Пётр Гланц)
Аудио3: Английский DTS 5.1, 48 KHz, 1536 kbps
Аудио4: Английский AC3 2.0, 48 KHz, 192 kbps (комментарии режиссёра)
Субтитры: Русские, английские
[spoiler=MI]
Общее
Уникальный идентификатор : 186293756290201928265869879018018135127 (0x8C26DF5395F5AEFA8FE303042E0D5C57)
Полное имя : Pink Panther.2006.BD.Remux.1080p.h264.2xRus.Eng.Commentary.mkv
Формат : Matroska
Версия формата : Version 1
Размер файла : 19,2 Гбайт
Продолжительность : 1 ч. 32 м.
Режим общего битрейта : Переменный
Общий поток : 29,6 Мбит/сек
Дата кодирования : UTC 2009-02-07 14:17:26
Программа кодирования : mkvmerge v2.4.2 ('Oh My God') built on Jan 18 2009 17:30:28
Библиотека кодирования : libebml v0.7.7 + libmatroska v0.8.1

Видео
Идентификатор : 1
Формат : AVC
Формат/Информация : Advanced Video Codec
Профиль формата : High@L4.1
Параметр CABAC формата : Да
Параметр ReFrames формата : 2 кадра
Режим смешивания : Container profile=Unknown@0.0
Идентификатор кодека : V_MPEG4/ISO/AVC
Продолжительность : 1 ч. 32 м.
Вид битрейта : Переменный
Битрейт : 25,4 Мбит/сек
Ширина : 1920 пикселей
Высота : 1080 пикселей
Соотношение сторон : 16:9
Режим частоты кадров : Постоянный
Частота кадров : 23,976 кадра/сек
Цветовое пространство : YUV
Субдискретизация насыщенности : 4:2:0
Битовая глубина : 8 бит
Тип развёртки : Прогрессивная
Бит/(Пиксели*Кадры) : 0.511
Размер потока : 16,5 Гбайт (86%)
Язык : English
Default : Да
Forced : Нет

Аудио #1
Идентификатор : 2
Формат : AC-3
Формат/Информация : Audio Coding 3
Расширение режима : CM (complete main)
Параметр Endianness формата : Big
Идентификатор кодека : A_AC3
Продолжительность : 1 ч. 32 м.
Вид битрейта : Постоянный
Битрейт : 448 Кбит/сек
Каналы : 6 каналов
Расположение каналов : Front: L C R, Side: L R, LFE
Частота : 48,0 КГц
Битовая глубина : 16 бит
Метод сжатия : С потерями
Задержка видео : 4 мс.
Размер потока : 297 Мбайт (2%)
Заголовок : Dublyazh Videoservis AC3 5.1 448 kbps
Язык : Russian
Default : Да
Forced : Нет

Аудио #2
Идентификатор : 3
Формат : DTS
Формат/Информация : Digital Theater Systems
Идентификатор кодека : A_DTS
Продолжительность : 1 ч. 32 м.
Вид битрейта : Постоянный
Битрейт : 1510 Кбит/сек
Каналы : 6 каналов
Расположение каналов : Front: L C R, Side: L R, LFE
Частота : 48,0 КГц
Битовая глубина : 24 бит
Метод сжатия : С потерями
Размер потока : 1002 Мбайт (5%)
Заголовок : Mnogogoloska Glanz DTS 5.1 1536 kbps
Язык : Russian
Default : Нет
Forced : Нет

Аудио #3
Идентификатор : 4
Формат : DTS
Формат/Информация : Digital Theater Systems
Идентификатор кодека : A_DTS
Продолжительность : 1 ч. 32 м.
Вид битрейта : Постоянный
Битрейт : 1510 Кбит/сек
Каналы : 6 каналов
Расположение каналов : Front: L C R, Side: L R, LFE
Частота : 48,0 КГц
Битовая глубина : 24 бит
Метод сжатия : С потерями
Размер потока : 1002 Мбайт (5%)
Заголовок : DTS 5.1 1536 kbps
Язык : English
Default : Нет
Forced : Нет

Аудио #4
Идентификатор : 5
Формат : AC-3
Формат/Информация : Audio Coding 3
Профиль формата : Dolby Digital
Расширение режима : CM (complete main)
Параметр Endianness формата : Big
Идентификатор кодека : A_AC3
Продолжительность : 1 ч. 32 м.
Вид битрейта : Постоянный
Битрейт : 192 Кбит/сек
Каналы : 2 канала
Расположение каналов : Front: L R
Частота : 48,0 КГц
Битовая глубина : 16 бит
Метод сжатия : С потерями
Размер потока : 127 Мбайт (1%)
Заголовок : Commentary by Director AC3 2.0 192 kbps
Язык : English
Default : Нет
Forced : Нет

Текст #1
Идентификатор : 6
Формат : UTF-8
Идентификатор кодека : S_TEXT/UTF8
Идентификатор кодека/Информация : UTF-8 Plain Text
Язык : Russian
Default : Нет
Forced : Нет

Текст #2
Идентификатор : 7
Формат : UTF-8
Идентификатор кодека : S_TEXT/UTF8
Идентификатор кодека/Информация : UTF-8 Plain Text
Язык : English
Default : Нет
Forced : Нет[/spoiler]
[spoiler=Скриншоты]Розовая пантера / The Pink Panther (2006) Blu-Ray Remux 1080pРозовая пантера / The Pink Panther (2006) Blu-Ray Remux 1080pРозовая пантера / The Pink Panther (2006) Blu-Ray Remux 1080pРозовая пантера / The Pink Panther (2006) Blu-Ray Remux 1080p[/spoiler]

Размер файла: 19.21 GB

Сиды: 0
Пиры: 2
Дата:12-11-2013, 03:57 Просмотров: 1146 Оценка: 0 из 5
Информация
Посетители, находящиеся в группе Гости, не могут оставлять комментарии к данной публикации.

БЕСПЛАТНЫЕ ИГРЫ

Яндекс.Метрика

Реклама: Психолог Спб и консультация психолога