Войти    Регистрация
Авторизация

Крушила Джо / Crusher Joe (1983) DVDRip торрент



Данные временно не коректно отображаются, приносим свои извенения!
krushila-dzho-crusher-joe-1983-dvdrip.torrent
Загрузил: Пользователь, Название:
Общий размер файлов в торренте:
Взяли: 9  | Размер: 17,22 Kb | Последняя активность: Сегодня
Раздают: | Качают: | Популярность:
   Файлы:


[img]/uploads/no-poster.jpg[/img


General
Unique ID : 198562583319483342688465666677357048321 (0x9561C33386E1D3A2830CAD91191A7201)
Complete name : G:AnimeКрушила Джо Crusher Joe[AniDub]_Crusher_Joe_[RUS]_[JPN]_[ENG]_[XVID_640x480].mkv
Format : Matroska
Format version : Version 2
File size : 1.67 GiB
Duration : 2h 12mn
Overall bit rate : 1 807 Kbps
Encoded date : UTC 2010-07-19 07:00:18
Writing application : mkvmerge v4.1.0 ('Boiling Point') сборка от Jul 1 2010 14:37:28
Writing library : libebml v1.0.0 + libmatroska v1.0.0

Video
ID : 1
Format : MPEG-4 Visual
Format profile : Simple@L3
Format settings, BVOP : No
Format settings, QPel : No
Format settings, GMC : No warppoints
Format settings, Matrix : Default (H.263)
Muxing mode : Header stripping
Codec ID : XVID
Codec ID/Hint : XviD
Duration : 2h 12mn
Width : 640 pixels
Height : 480 pixels
Display aspect ratio : 4:3
Frame rate : 25.000 fps
Color space : YUV
Chroma subsampling : 4:2:0
Bit depth : 8 bits
Scan type : Progressive
Compression mode : Lossy
Writing library : ZJMedia MPEG Encoder
Default : Yes
Forced : No

Audio #1
ID : 2
Format : AAC
Format/Info : Advanced Audio Codec
Format profile : LC
Codec ID : A_AAC
Duration : 2h 12mn
Channel(s) : 2 channels
Channel positions : Front: L R
Sampling rate : 48.0 KHz
Compression mode : Lossy
Title : Russian
Language : Russian
Default : Yes
Forced : No

Audio #2
ID : 3
Format : MPEG Audio
Format version : Version 1
Format profile : Layer 3
Mode : Joint stereo
Mode extension : MS Stereo
Muxing mode : Header stripping
Codec ID : A_MPEG/L3
Codec ID/Hint : MP3
Duration : 2h 12mn
Bit rate mode : Constant
Bit rate : 128 Kbps
Channel(s) : 2 channels
Sampling rate : 44.1 KHz
Compression mode : Lossy
Stream size : 121 MiB (7%)
Language : Japanese
Default : No
Forced : No

Audio #3
ID : 4
Format : MPEG Audio
Format version : Version 1
Format profile : Layer 3
Mode : Joint stereo
Mode extension : MS Stereo
Muxing mode : Header stripping
Codec ID : A_MPEG/L3
Codec ID/Hint : MP3
Duration : 2h 12mn
Bit rate mode : Constant
Bit rate : 128 Kbps
Channel(s) : 2 channels
Sampling rate : 44.1 KHz
Compression mode : Lossy
Stream size : 121 MiB (7%)
Language : English
Default : No
Forced : No

Menu
00:00:00.054 : en:00:00:00.054
[/spoiler]

Страна: Япония
Продолжительность: 2 Ч 12 мин
Перевод: Любительский одноголосый

Файл
Кодек: MKV
Качество: DVDRip
Видео: Xvid 640x480 1357 Kbps 25.00fps
Звук:
RU - AAC 48000Hz 192Kbps;
JP Mp3 - 44100Hz stereo 128Kbps;
Eng- Mp3 - 44100Hz stereo 128Kbps

Размер файла: 1.67 GB

Сиды: 3
Пиры: 0
Дата:3-11-2013, 01:49 Просмотров: 1335 Оценка: 0 из 5
Информация
Посетители, находящиеся в группе Гости, не могут оставлять комментарии к данной публикации.

БЕСПЛАТНЫЕ ИГРЫ

Яндекс.Метрика

Реклама: Психолог Спб и консультация психолога